RadioReference on Facebook   RadioReference on Twitter   RadioReference Blog
 

Go Back   The RadioReference.com Forums > Software > Streaming / Broadcasting / Audio Recording

Streaming / Broadcasting / Audio Recording Interested in putting your scanner online for others to hear? Want to listen to other radios on the internet. This forum is here for you to discuss these topics related to streaming scanners online.

Reply
 
LinkBack Thread Tools Search this Thread Display Modes
  #881 (permalink)  
Old 10-16-2012, 1:05 PM
Member
  Premium Subscriber
Premium Subscriber
 
Join Date: Aug 2005
Posts: 844
Default

If it's detecting the tone set, it should also send the email. The special characters in the tone description are probably the issue, although I'm not sure why it worked for you at all that way.

Stacked (back to back) pages may require a bit of tweaking of the settings, particularly if you have tone sets the use the same tone frequencies in different orders (A-B/B-A,, etc.). The safest bet is to set Btonelength to the actual B tone length and set Btonedebounce to 2.

Andy
Reply With Quote
Sponsored links
        
  #882 (permalink)  
Old 10-18-2012, 12:35 PM
silfam1's Avatar
Member
  Audio Feed Provider
Audio Feed Provider
 
Join Date: Feb 2007
Location: Connecticut
Posts: 72
Default Text alert if software is shutdown

Hi Andy,
In your next update, could you possibly include a text notification if the software goes down? I.E. if someone shuts down or reboots the computer the software is installed on. Thanks so much.
Joe
Reply With Quote
  #883 (permalink)  
Old 10-18-2012, 12:42 PM
Member
   
Join Date: Feb 2010
Location: Port Orchard, WA
Posts: 61
Default

Quote:
Originally Posted by silfam1 View Post
Hi Andy,
In your next update, could you possibly include a text notification if the software goes down? I.E. if someone shuts down or reboots the computer the software is installed on. Thanks so much.
Joe
Do you mean a text notification on the screen or to a phone/device? I think maybe an option time have a command execute on exit would provide the most flexibility? However this would only work on a 'nice' shutdown as if the exe it terminated how would it know or have the ability to notify. You would need a separate watchdog process for that on a different device I think.
Reply With Quote
  #884 (permalink)  
Old 10-18-2012, 2:09 PM
Forts's Avatar
Mentor
  RadioReference Database Admininstrator
Database Admin
 
Join Date: Dec 2002
Location: Strathroy, Ontario Canada
Posts: 3,868
Default

If the machine gets shut down, how will the software be able to send out an alert ?
__________________
Middlesex County/Strathroy-Caradoc Fire Paging Alerts: http://groups.google.com/group/middlesex-fire
Reply With Quote
  #885 (permalink)  
Old 10-18-2012, 2:26 PM
silfam1's Avatar
Member
  Audio Feed Provider
Audio Feed Provider
 
Join Date: Feb 2007
Location: Connecticut
Posts: 72
Default

Just a text to my phone would be adequate upon TTD shutdown similar to scannercast.
Joe
Reply With Quote
Sponsored links
        
  #886 (permalink)  
Old 10-22-2012, 9:56 AM
Member
  Audio Feed Provider
Audio Feed Provider
 
Join Date: Oct 2012
Posts: 10
Default

First off, thank you for the software. I've been using it for years and everything has been working great. I just switched to the new version and everything is working great with this one as well.

I do have one request. The MP3 files coming from the software are Stereo. When analizing them with Audacity, only one channel actually has audio. The other channel is dead noise.

Is there any way we could get the software to output these as Mono to cut the file size down to allow for faster e-mailing?

Please let me know.
Reply With Quote
  #887 (permalink)  
Old 10-22-2012, 7:08 PM
Member
  Audio Feed Provider
Audio Feed Provider
 
Join Date: Sep 2009
Location: Outer Banks, NC
Posts: 188
Default

Quote:
Originally Posted by silfam1 View Post
Just a text to my phone would be adequate upon TTD shutdown similar to scannercast.
Joe
Something like that is only possible if it's properly closed, not if the computer or program is powered off instantly. You would need a 3rd party service to do it otherwise.
Reply With Quote
  #888 (permalink)  
Old 10-22-2012, 10:51 PM
silfam1's Avatar
Member
  Audio Feed Provider
Audio Feed Provider
 
Join Date: Feb 2007
Location: Connecticut
Posts: 72
Default

I did find a program that emails when the computer is restarted and so far seems to work ok. It works in conjunction with task scheduler. It is a command line based program. Thanks for the input, I appreciate it.
Joe
Reply With Quote
  #889 (permalink)  
Old 10-23-2012, 7:16 PM
smittyj77's Avatar
Member
   
Join Date: Sep 2004
Location: Brockville
Posts: 135
Default

So I have taken out the special & charcter that was in my tone settings. It seemed to work ok for a little bit, then Monday when our pager messages go out it never sent email , got home today and checked PC and the last 9 received pages were recorded and time stamped in two tone detect but not one of them was sent by email, none of the had the Email Sent! Message after each or any line.

Any more suggestions?

Attached is the photo of 4 that were not emailed and there was 5 after that.

Sent from my BlackBerry 9900 using Tapatalk
Attached Images
 
Reply With Quote
Sponsored links
        
  #890 (permalink)  
Old 10-23-2012, 7:32 PM
wizard of odd
  RadioReference Database Admininstrator
Database Admin
 
Join Date: May 2004
Location: Michigan
Posts: 439
Default

I use scannercast and a RR feed to let me know if the computer, or network goes offline.

At my broadcasting job, I use transmitter control software that requires a password to close the program. Maybe TTD could employ that method to ensure someone doesn't accidentally close the program.
Reply With Quote
  #891 (permalink)  
Old 10-23-2012, 9:19 PM
Member
  Audio Feed Provider
Audio Feed Provider
 
Join Date: Feb 2011
Location: Massachusetts
Posts: 346
Default

Quote:
Originally Posted by smittyj77 View Post
So I have taken out the special & charcter that was in my tone settings. It seemed to work ok for a little bit, then Monday when our pager messages go out it never sent email , got home today and checked PC and the last 9 received pages were recorded and time stamped in two tone detect but not one of them was sent by email, none of the had the Email Sent! Message after each or any line.

Any more suggestions?

Attached is the photo of 4 that were not emailed and there was 5 after that.

Sent from my BlackBerry 9900 using Tapatalk
For starters, run the debug version of the program, TwoToneDetect_debug.exe. This will run a second window that shows what the program is doing. Very helpful for solving these types of problems. Then copy and paste the section where it detected but didnt send the email ito a post here
Reply With Quote
  #892 (permalink)  
Old 10-23-2012, 10:23 PM
smittyj77's Avatar
Member
   
Join Date: Sep 2004
Location: Brockville
Posts: 135
Default

Ok missed a bunch more pages tonight - heres what the debug side of the program said - looks like a email error of some sort?

But I havent changed any email settings from when it was working till now .

ffmpeg version N-45279-g1a104bf Copyright (c) 2000-2012 the FFmpeg developers
built on Oct 10 2012 19:19:16 with gcc 4.7.2 (GCC)
configuration: --enable-gpl --enable-version3 --disable-pthreads --enable-runt
ime-cpudetect --enable-avisynth --enable-bzlib --enable-frei0r --enable-libass -
-enable-libcelt --enable-libopencore-amrnb --enable-libopencore-amrwb --enable-l
ibfreetype --enable-libgsm --enable-libmp3lame --enable-libnut --enable-libopenj
peg --enable-librtmp --enable-libschroedinger --enable-libspeex --enable-libtheo
ra --enable-libutvideo --enable-libvo-aacenc --enable-libvo-amrwbenc --enable-li
bvorbis --enable-libvpx --enable-libx264 --enable-libxavs --enable-libxvid --ena
ble-zlib
libavutil 51. 74.100 / 51. 74.100
libavcodec 54. 65.100 / 54. 65.100
libavformat 54. 31.100 / 54. 31.100
libavdevice 54. 3.100 / 54. 3.100
libavfilter 3. 19.102 / 3. 19.102
libswscale 2. 1.101 / 2. 1.101
libswresample 0. 16.100 / 0. 16.100
libpostproc 52. 1.100 / 52. 1.100
[wav @ 0259c200] max_analyze_duration 5000000 reached at 5015510
Guessed Channel Layout for Input Stream #0.0 : stereo
Input #0, wav, from './audio/Elizabethtown_Kitley_3_2012-10-2320_34_57_437000.wa
v':
Duration: 00:00:27.86, bitrate: 352 kb/s
Stream #0:0: Audio: pcm_s16le ([1][0][0][0] / 0x0001), 11025 Hz, stereo, s16
, 352 kb/s
Output #0, mp3, to './audio/Elizabethtown_Kitley_3_2012-10-2320_34_57_437000.mp3
':
Metadata:
TSSE : Lavf54.31.100
Stream #0:0: Audio: mp3, 11025 Hz, stereo, s16p, 32 kb/s
Stream mapping:
Stream #0:0 -> #0:0 (pcm_s16le -> libmp3lame)
Press [q] to stop, [?] for help
size= 110kB time=00:00:27.90 bitrate= 32.2kbits/s
video:0kB audio:109kB subtitle:0 global headers:0kB muxing overhead 0.216939%
done converting to MP3 20:34:58
Unhandled exception in thread started by <function alert at 0x0158B970>
Traceback (most recent call last):
File "<string>", line 482, in alert
File "<string>", line 320, in mail
File "D:\Python\build\pyi.win32\TwoToneDetect56_debug\o utPYZ1.pyz/smtplib", li
ne 604, in login
smtplib.SMTPAuthenticationError: (535, '5.7.1 Please log in with your web browse
r and then try again. Learn more at\n5.7.1 https://support.google.com/mail/bin/a
nswer.py?answer=78754 7sm759434igh.0')
waiting for audio 20:35:00
recording audio 20:35:00
done writing WAV 20:35:04
ffmpeg version N-45279-g1a104bf Copyright (c) 2000-2012 the FFmpeg developers
built on Oct 10 2012 19:19:16 with gcc 4.7.2 (GCC)
configuration: --enable-gpl --enable-version3 --disable-pthreads --enable-runt
ime-cpudetect --enable-avisynth --enable-bzlib --enable-frei0r --enable-libass -
-enable-libcelt --enable-libopencore-amrnb --enable-libopencore-amrwb --enable-l
ibfreetype --enable-libgsm --enable-libmp3lame --enable-libnut --enable-libopenj
peg --enable-librtmp --enable-libschroedinger --enable-libspeex --enable-libtheo
ra --enable-libutvideo --enable-libvo-aacenc --enable-libvo-amrwbenc --enable-li
bvorbis --enable-libvpx --enable-libx264 --enable-libxavs --enable-libxvid --ena
ble-zlib
libavutil 51. 74.100 / 51. 74.100
libavcodec 54. 65.100 / 54. 65.100
libavformat 54. 31.100 / 54. 31.100
libavdevice 54. 3.100 / 54. 3.100
libavfilter 3. 19.102 / 3. 19.102
libswscale 2. 1.101 / 2. 1.101
libswresample 0. 16.100 / 0. 16.100
libpostproc 52. 1.100 / 52. 1.100
[wav @ 0259c200] max_analyze_duration 5000000 reached at 5015510
Guessed Channel Layout for Input Stream #0.0 : stereo
Input #0, wav, from './audio/Elizabethtown_Kitley_3_2012-10-2320_35_04_312000.wa
v':
Duration: 00:00:27.86, bitrate: 352 kb/s
Stream #0:0: Audio: pcm_s16le ([1][0][0][0] / 0x0001), 11025 Hz, stereo, s16
, 352 kb/s
Output #0, mp3, to './audio/Elizabethtown_Kitley_3_2012-10-2320_35_04_312000.mp3
':
Metadata:
TSSE : Lavf54.31.100
Stream #0:0: Audio: mp3, 11025 Hz, stereo, s16p, 32 kb/s
Stream mapping:
Stream #0:0 -> #0:0 (pcm_s16le -> libmp3lame)
Press [q] to stop, [?] for help
size= 110kB time=00:00:27.90 bitrate= 32.2kbits/s
video:0kB audio:109kB subtitle:0 global headers:0kB muxing overhead 0.216939%
done converting to MP3 20:35:04
Unhandled exception in thread started by <function alert at 0x0158B970>
Traceback (most recent call last):
File "<string>", line 482, in alert
File "<string>", line 320, in mail
File "D:\Python\build\pyi.win32\TwoToneDetect56_debug\o utPYZ1.pyz/smtplib", li
ne 604, in login
smtplib.SMTPAuthenticationError: (535, '5.7.1 Please log in with your web browse
r and then try again. Learn more at\n5.7.1 https://support.google.com/mail/bin/a
nswer.py?answer=78754 uj6sm775115igb.4')
898.0 Atone1
1199.0Atone2
done writing WAV 20:35:20
ffmpeg version N-45279-g1a104bf Copyright (c) 2000-2012 the FFmpeg developers
built on Oct 10 2012 19:19:16 with gcc 4.7.2 (GCC)
configuration: --enable-gpl --enable-version3 --disable-pthreads --enable-runt
ime-cpudetect --enable-avisynth --enable-bzlib --enable-frei0r --enable-libass -
-enable-libcelt --enable-libopencore-amrnb --enable-libopencore-amrwb --enable-l
ibfreetype --enable-libgsm --enable-libmp3lame --enable-libnut --enable-libopenj
peg --enable-librtmp --enable-libschroedinger --enable-libspeex --enable-libtheo
ra --enable-libutvideo --enable-libvo-aacenc --enable-libvo-amrwbenc --enable-li
bvorbis --enable-libvpx --enable-libx264 --enable-libxavs --enable-libxvid --ena
ble-zlib
libavutil 51. 74.100 / 51. 74.100
libavcodec 54. 65.100 / 54. 65.100
libavformat 54. 31.100 / 54. 31.100
libavdevice 54. 3.100 / 54. 3.100
libavfilter 3. 19.102 / 3. 19.102
libswscale 2. 1.101 / 2. 1.101
libswresample 0. 16.100 / 0. 16.100
libpostproc 52. 1.100 / 52. 1.100
[wav @ 0259c200] max_analyze_duration 5000000 reached at 5015510
Guessed Channel Layout for Input Stream #0.0 : stereo
Input #0, wav, from './audio/Elizabethtown_Kitley_3_2012-10-2320_35_20_703000.wa
v':
Duration: 00:00:27.86, bitrate: 352 kb/s
Stream #0:0: Audio: pcm_s16le ([1][0][0][0] / 0x0001), 11025 Hz, stereo, s16
, 352 kb/s
Output #0, mp3, to './audio/Elizabethtown_Kitley_3_2012-10-2320_35_20_703000.mp3
':
Metadata:
TSSE : Lavf54.31.100
Stream #0:0: Audio: mp3, 11025 Hz, stereo, s16p, 32 kb/s
Stream mapping:
Stream #0:0 -> #0:0 (pcm_s16le -> libmp3lame)
Press [q] to stop, [?] for help
size= 110kB time=00:00:27.90 bitrate= 32.2kbits/s
video:0kB audio:109kB subtitle:0 global headers:0kB muxing overhead 0.216939%
done converting to MP3 20:35:21
Unhandled exception in thread started by <function alert at 0x0158B970>
Traceback (most recent call last):
File "<string>", line 482, in alert
File "<string>", line 320, in mail
File "D:\Python\build\pyi.win32\TwoToneDetect56_debug\o utPYZ1.pyz/smtplib", li
ne 604, in login
smtplib.SMTPAuthenticationError: (535, '5.7.1 Please log in with your web browse
r and then try again. Learn more at\n5.7.1 https://support.google.com/mail/bin/a
nswer.py?answer=78754 eo7sm761693igc.12')
done writing WAV 20:35:27
ffmpeg version N-45279-g1a104bf Copyright (c) 2000-2012 the FFmpeg developers
built on Oct 10 2012 19:19:16 with gcc 4.7.2 (GCC)
configuration: --enable-gpl --enable-version3 --disable-pthreads --enable-runt
ime-cpudetect --enable-avisynth --enable-bzlib --enable-frei0r --enable-libass -
-enable-libcelt --enable-libopencore-amrnb --enable-libopencore-amrwb --enable-l
ibfreetype --enable-libgsm --enable-libmp3lame --enable-libnut --enable-libopenj
peg --enable-librtmp --enable-libschroedinger --enable-libspeex --enable-libtheo
ra --enable-libutvideo --enable-libvo-aacenc --enable-libvo-amrwbenc --enable-li
bvorbis --enable-libvpx --enable-libx264 --enable-libxavs --enable-libxvid --ena
ble-zlib
libavutil 51. 74.100 / 51. 74.100
libavcodec 54. 65.100 / 54. 65.100
libavformat 54. 31.100 / 54. 31.100
libavdevice 54. 3.100 / 54. 3.100
libavfilter 3. 19.102 / 3. 19.102
libswscale 2. 1.101 / 2. 1.101
libswresample 0. 16.100 / 0. 16.100
libpostproc 52. 1.100 / 52. 1.100
[wav @ 0259c200] max_analyze_duration 5000000 reached at 5015510
Guessed Channel Layout for Input Stream #0.0 : stereo
Input #0, wav, from './audio/Elizabethtown_Kitley_3_2012-10-2320_35_27_937000.wa
v':
Duration: 00:00:27.86, bitrate: 352 kb/s
Stream #0:0: Audio: pcm_s16le ([1][0][0][0] / 0x0001), 11025 Hz, stereo, s16
, 352 kb/s
Output #0, mp3, to './audio/Elizabethtown_Kitley_3_2012-10-2320_35_27_937000.mp3
':
Metadata:
TSSE : Lavf54.31.100
Stream #0:0: Audio: mp3, 11025 Hz, stereo, s16p, 32 kb/s
Stream mapping:
Stream #0:0 -> #0:0 (pcm_s16le -> libmp3lame)
Press [q] to stop, [?] for help
size= 110kB time=00:00:27.90 bitrate= 32.2kbits/s
video:0kB audio:109kB subtitle:0 global headers:0kB muxing overhead 0.216939%
done converting to MP3 20:35:28
Unhandled exception in thread started by <function alert at 0x0158B970>
Traceback (most recent call last):
File "<string>", line 482, in alert
File "<string>", line 320, in mail
File "D:\Python\build\pyi.win32\TwoToneDetect56_debug\o utPYZ1.pyz/smtplib", li
ne 604, in login
smtplib.SMTPAuthenticationError: (535, '5.7.1 Please log in with your web browse
r and then try again. Learn more at\n5.7.1 https://support.google.com/mail/bin/a
nswer.py?answer=78754 dq9sm774103igc.5')
Reply With Quote
  #893 (permalink)  
Old 10-24-2012, 8:57 AM
Member
  Audio Feed Provider
Audio Feed Provider
 
Join Date: Oct 2012
Posts: 10
Default

Based on the error, it says its a username or password issue. In the error it has the following website: https://support.google.com/mail/bin/...n&answer=78754

The website states if you know your username and password are correct but its still not working, you should log into the web site for gmail and this should resolve it.

http://www.gmail.com
Reply With Quote
  #894 (permalink)  
Old 10-24-2012, 10:22 AM
Member
  Audio Feed Provider
Audio Feed Provider
 
Join Date: Oct 2012
Posts: 7
Default Error in debug

First off I want to say thank you for creating this program and making it free. I am trying to set it up to email the members of our ambulance corps but I cant get it to send emails I ran the debug and found this at the end
Code:
done converting to MP3 11:18:06
Unhandled exception in thread started by <function alert at 0x01534470>
Traceback (most recent call last):
  File "<string>", line 482, in alert
  File "<string>", line 316, in mail
  File "D:\Python\build\pyi.win32\TwoToneDetect56_debug\outPYZ1.pyz/smtplib", line 242, in __init__
  File "D:\Python\build\pyi.win32\TwoToneDetect56_debug\outPYZ1.pyz/smtplib", line 302, in connect
  File "D:\Python\build\pyi.win32\TwoToneDetect56_debug\outPYZ1.pyz/smtplib", line 277, in _get_socket
  File "D:\Python\build\pyi.win32\TwoToneDetect56_debug\outPYZ1.pyz/socket", line 571, in create_connection
socket.error: [Errno 10061] No connection could be made because the target machine actively refused it
Reply With Quote
  #895 (permalink)  
Old 10-24-2012, 12:41 PM
Member
   
Join Date: Feb 2010
Location: Port Orchard, WA
Posts: 61
Default

Quote:
Originally Posted by URIEMS View Post
socket.error: [Errno 10061] No connection could be made because the target machine actively refused it
[/code]
This is from your email configuration. Double check the host name and port.

Last edited by kenmaples; 10-24-2012 at 12:46 PM..
Reply With Quote
Sponsored links
  #896 (permalink)  
Old 10-24-2012, 1:05 PM
Member
  Audio Feed Provider
Audio Feed Provider
 
Join Date: Oct 2012
Posts: 7
Default

Quote:
Originally Posted by kenmaples View Post
This is from your email configuration. Double check the host name and port.
Host is smtp.gmail.com
Port is 587
Reply With Quote
  #897 (permalink)  
Old 10-24-2012, 6:34 PM
smittyj77's Avatar
Member
   
Join Date: Sep 2004
Location: Brockville
Posts: 135
Default

I logged into gmail with the username and password that i have provided within twotone detect, My port and smtp settings are correct .

Something worth note maybe is when i logged into the gmail website i had to input a security phrase - i wonder if this is what was affecting the email portion of twotone detect
Reply With Quote
  #898 (permalink)  
Old 10-24-2012, 7:04 PM
Member
   
Join Date: Feb 2010
Location: Port Orchard, WA
Posts: 61
Default

Quote:
Originally Posted by smittyj77 View Post
I logged into gmail with the username and password that i have provided within twotone detect, My port and smtp settings are correct .

Something worth note maybe is when i logged into the gmail website i had to input a security phrase - i wonder if this is what was affecting the email portion of twotone detect
If you were prompted with a captcha, this would normally mean that there were a number of failed login attempts. Any further attempts without validation would be rejected as you saw.

Is email sending again?
Reply With Quote
  #899 (permalink)  
Old 10-24-2012, 8:26 PM
smittyj77's Avatar
Member
   
Join Date: Sep 2004
Location: Brockville
Posts: 135
Default

I will see , i have logged in through the web and logged out and back in and didnt get a captcha so I should be good to go again.
Reply With Quote
  #900 (permalink)  
Old 10-25-2012, 8:02 AM
Member
  Audio Feed Provider
Audio Feed Provider
 
Join Date: Oct 2012
Posts: 7
Default

Solved my problem, McAfee was blocking it from sending the emails
Reply With Quote
Reply

Tags
twotonedetect

Thread Tools Search this Thread
Search this Thread:

Advanced Search
Display Modes

Posting Rules
You may not post new threads
You may not post replies
You may not post attachments
You may not edit your posts

BB code is On
Smilies are On
[IMG] code is On
HTML code is Off
Trackbacks are On
Pingbacks are On
Refbacks are On



All times are GMT -5. The time now is 5:13 AM.


Powered by vBulletin® Version 3.8.2
Copyright ©2000 - 2014, vBulletin Solutions, Inc.
All information here is Copyright 2012 by RadioReference.com LLC and Lindsay C. Blanton III.Ad Management by RedTyger
Copyright 2011 by RadioReference.com LLC Privacy Policy  |  Terms and Conditions